MastiYa   MastiYa MastiYa Mastiya on Youtube

Go Back   MastiYa > Mirch Masala > Pictures and Videos - Adult

Reply
 
Thread Tools Search this Thread Display Modes
  #1  
Old 04-04-2013, 09:59 AM
bad boy alan bad boy alan is offline
Professional
 
Join Date: Jun 2012
Posts: 1,437
Rep Power: 4
bad boy alan is an unknown quantity at this point
Default Girl Getting Gangbanged






















Code:
General
Complete name                            : /disco2/asdfeuh2/public_html/rapidleech/files/Descargas-Directas/16353.flv
Format                                   : Flash Video
File size                                : 76.8 MiB
Duration                                 : 20mn 10s
Overall bit rate                         : 532 Kbps
Encoded date                             : Tue Nov 20 16:07:08 2012
Tagging application                      : On2 Flix Pro v8.546win
vervpxplugin                             : Codecs Version : 6.2.9.22

Video
Format                                   : VP6
Codec ID                                 : 4
Duration                                 : 20mn 10s
Bit rate                                 : 448 Kbps
Width                                    : 600 pixels
Height                                   : 450 pixels
Display aspect ratio                     : 4:3
Frame rate mode                          : Constant
Frame rate                               : 30.000 fps
Bit depth                                : 8 bits
Bits/(Pixel*Frame)                       : 0.055
Stream size                              : 64.6 MiB (84%)

Audio
Format                                   : MPEG Audio
Format version                           : Version 2
Format profile                           : Layer 3
Mode                                     : Joint stereo
Mode extension                           : MS Stereo
Codec ID                                 : 2
Codec ID/Hint                            : MP3
Duration                                 : 20mn 10s
Bit rate mode                            : Constant
Bit rate                                 : 64.0 Kbps
Channel(s)                               : 2 channels
Sampling rate                            : 22.05 KHz
Compression mode                         : Lossy
Stream size                              : 9.24 MiB (12%)
Writing library                          : LAME3.96

















AGRADECER NO CUESTA NADA!!! Y COMENTAR TAMPOCO!!!

Reply With Quote
Reply

Thread Tools Search this Thread
Search this Thread:

Advanced Search
Display Modes

Posting Rules
You may not post new threads
You may not post replies
You may not post attachments
You may not edit your posts

BB code is On
Smilies are On
[IMG] code is On
HTML code is Off



All times are GMT +5.5. The time now is 11:29 PM.


Powered by vBulletin® Version 3.8.6
Copyright ©2000 - 2014, Jelsoft Enterprises Ltd.
all Rights Reserved @ Mastiya
eXTReMe Tracker